<svg xmlns="http://www.w3.org/2000/svg"><defs><font id="tinymce" horiz-adv-x="1024"><font-face units-per-em="1024" ascent="960" descent="-64" /><missing-glyph horiz-adv-x="1024" /><glyph unicode="&#x20;" horiz-adv-x="512" /><glyph unicode="&#xe000;" glyph-name="save" d="M896 960H0V-64h1024v896L896 960zM512 832h128V576H512v256zM896 64H128v768h64V512h576v320h74.978L896 778.982V64z" /><glyph unicode="&#xe001;" glyph-name="newdocument" d="M903.432 760.57 760.568 903.432C729.456 934.544 668 960 624 960H144c-44 0-80-36-80-80V16c0-44 36-80 80-80h736c44 0 80 36 80 80v608c0 44-25.456 105.458-56.568 136.57zM858.178 715.314c3.13-3.13 6.25-6.974 9.28-11.314H704v163.456c4.34-3.03 8.184-6.15 11.314-9.28l142.864-142.862zM896 16c0-8.672-7.328-16-16-16H144c-8.672.0-16 7.328-16 16v864c0 8.672 7.328 16 16 16h480c4.832.0 10.254-.61 16-1.704V640h254.296c1.094-5.746 1.704-11.166 1.704-16V16z" /><glyph unicode="&#xe002;" glyph-name="fullpage" d="M1024 367.542v160.916l-159.144 15.914c-8.186 30.042-20.088 58.548-35.21 84.98l104.596 127.838-113.052 113.05-127.836-104.596c-26.434 15.124-54.942 27.026-84.982 35.208l-15.914 159.148H431.542l-15.914-159.146c-30.042-8.186-58.548-20.086-84.98-35.208l-127.838 104.594-113.05-113.05 104.596-127.836c-15.124-26.432-27.026-54.94-35.21-84.98L0 528.458V367.542l159.146-15.914c8.186-30.042 20.086-58.548 35.21-84.982l-104.596-127.836 113.048-113.048 127.838 104.596c26.432-15.124 54.94-27.028 84.98-35.21l15.916-159.148h160.916l15.914 159.144c30.042 8.186 58.548 20.088 84.982 35.21l127.836-104.596 113.048 113.048-104.596 127.836c15.124 26.434 27.028 54.942 35.21 84.98L1024 367.542zM704 384 576 256H448L320 384v128l128 128h128l128-128V384z" /><glyph unicode="&#xe003;" glyph-name="alignleft" d="M0 896h1024V768H0zM0 704h640V576H0zM0 320h640V192H0zM0 512h1024V384H0zM0 128h1024V0H0z" /><glyph unicode="&#xe004;" glyph-name="aligncenter" d="M0 896h1024V768H0zM192 704h640V576H192zm0-384h640V192H192zM0 512h1024V384H0zM0 128h1024V0H0z" /><glyph unicode="&#xe005;" glyph-name="alignright" d="M0 896h1024V768H0zM384 704h640V576H384zm0-384h640V192H384zM0 512h1024V384H0zM0 128h1024V0H0z" /><glyph unicode="&#xe006;" glyph-name="alignjustify" d="M0 896h1024V768H0zM0 704h1024V576H0zM0 512h1024V384H0zM0 320h1024V192H0zM0 128h1024V0H0z" /><glyph unicode="&#xe007;" glyph-name="cut" d="M890.774 250.846c-45.654 45.556-103.728 69.072-157.946 69.072h-29.112l-63.904 64.008 255.62 256.038c63.904 64.01 63.904 192.028.0 256.038l-383.43-384.056-383.432 384.054c-63.904-64.008-63.904-192.028.0-256.038l255.622-256.034-63.906-64.008h-29.114c-54.22.0-112.292-23.518-157.948-69.076-81.622-81.442-92.65-202.484-24.63-270.35 29.97-29.902 70.288-44.494 112.996-44.494 54.216.0 112.29 23.514 157.946 69.072 53.584 53.464 76.742 124 67.084 185.348l65.384 65.488 65.376-65.488c-9.656-61.348 13.506-131.882 67.084-185.348 45.662-45.558 103.732-69.072 157.948-69.072 42.708.0 83.024 14.592 112.994 44.496 68.02 67.866 56.988 188.908-24.632 270.35zM353.024 114.462c-7.698-17.882-19.01-34.346-33.626-48.926-14.636-14.604-31.172-25.918-49.148-33.624-16.132-6.916-32.96-10.568-48.662-10.568-15.146.0-36.612 3.402-52.862 19.612-16.136 16.104-19.52 37.318-19.52 52.288.0 15.542 3.642 32.21 10.526 48.212 7.7 17.884 19.014 34.346 33.626 48.926 14.634 14.606 31.172 25.914 49.15 33.624 16.134 6.914 32.96 10.568 48.664 10.568 15.146.0 36.612-3.4 52.858-19.614 16.134-16.098 19.522-37.316 19.522-52.284.002-15.542-3.638-32.216-10.528-48.214zM512.004 293.404c-49.914.0-90.376 40.532-90.376 90.526.0 49.992 40.462 90.52 90.376 90.52s90.372-40.528 90.372-90.52c0-49.998-40.46-90.526-90.372-90.526zM855.272 40.958c-16.248-16.208-37.712-19.612-52.86-19.612-15.704.0-32.53 3.652-48.666 10.568-17.972 7.706-34.508 19.02-49.142 33.624-14.614 14.58-25.926 31.042-33.626 48.926-6.886 15.998-10.526 32.672-10.526 48.212.0 14.966 3.384 36.188 19.52 52.286 16.246 16.208 37.712 19.614 52.86 19.614 15.7.0 32.53-3.654 48.66-10.568 17.978-7.708 34.516-19.018 49.15-33.624 14.61-14.58 25.924-31.042 33.626-48.926 6.884-15.998 10.526-32.67 10.526-48.212-.002-14.97-3.39-36.186-19.522-52.288z" /><glyph unicode="&#xe008;" glyph-name="paste" d="M832 640v160c0 17.6-14.4 32-32 32H576v64c0 35.2-28.8 64-64 64H384c-35.204.0-64-28.8-64-64v-64H96c-17.602.0-32-14.4-32-32V160c0-17.6 14.398-32 32-32h288V-64h448l192 192v512H832zM384 895.886c.034.038.072.078.114.114h127.768c.042-.036.082-.076.118-.114V832h-128v63.886zM192 704v64h512v-64H192zM832 26.51V128h101.49l-101.49-101.49zM960 192H768V0H448v576h512V192z" /><glyph unicode="&#xe009;" glyph-name="searchreplace" d="M64 960h384v-64H64zm512 0h384v-64H576zM952 640h-56v256H640V640H384v256H128V640H72c-39.6.0-72-32.4-72-72V8c0-39.6 32.4-72 72-72h304c39.6.0 72 32.4 72 72v376h128V8c0-39.6 32.4-72 72-72h304c39.6.0 72 32.4 72 72v560c0 39.6-32.4 72-72 72zM348 0H1e2C80.2.0 64 14.4 64 32s16.2 32 36 32h248c19.8.0 36-14.4 36-32S367.8.0 348 0zM544 448h-64c-17.6.0-32 14.4-32 32s14.4 32 32 32h64c17.6.0 32-14.4 32-32s-14.4-32-32-32zM924 0H676c-19.8.0-36 14.4-36 32s16.2 32 36 32h248c19.8.0 36-14.4 36-32S943.8.0 924 0z" /><glyph unicode="&#xe00a;" glyph-name="bullist" d="M384 896h640V768H384v128zm0-384h640V384H384v128zm0-384h640V0H384v128zM0 832c0 70.692 57.308 128 128 128s128-57.308 128-128c0-70.692-57.308-128-128-128S0 761.308.0 832zM0 448c0 70.692 57.308 128 128 128s128-57.308 128-128c0-70.692-57.308-128-128-128S0 377.308.0 448zM0 64c0 70.692 57.308 128 128 128s128-57.308 128-128c0-70.692-57.308-128-128-128S0-6.692.0 64z" /><glyph unicode="&#xe00b;" glyph-name="numlist" d="M384 128h640V0H384zm0 384h640V384H384zm0 384h640V768H384zM192 960V704h-64v192H64v64zM128 434v-50h128v-64H64v146l128 60v50H64v64h192V494zM256 256V-64H64V0h128v64H64v64h128v64H64v64z" /><glyph unicode="&#xe00c;" glyph-name="indent" d="M0 896h1024V768H0zM384 704h640V576H384zm0-192h640V384H384zm0-192h640V192H384zM0 128h1024V0H0zM0 256v384l256-192z" /><glyph unicode="&#xe00d;" glyph-name="outdent" d="M0 896h1024V768H0zM384 704h640V576H384zm0-192h640V384H384zm0-192h640V192H384zM0 128h1024V0H0zM256 640V256L0 448z" /><glyph unicode="&#xe00e;" glyph-name="blockquote" d="M225 512c123.712.0 224-100.29 224-224 0-123.712-100.288-224-224-224S1 164.288 1 288l-1 32c0 247.424 200.576 448 448 448V640c-85.474.0-165.834-33.286-226.274-93.726-11.634-11.636-22.252-24.016-31.83-37.02 11.438 1.8 23.16 2.746 35.104 2.746zm576 0c123.71.0 224-100.29 224-224 0-123.712-100.29-224-224-224S577 164.288 577 288l-1 32c0 247.424 200.576 448 448 448V640c-85.474.0-165.834-33.286-226.274-93.726-11.636-11.636-22.254-24.016-31.832-37.02 11.44 1.8 23.16 2.746 35.106 2.746z" /><glyph unicode="&#xe00f;" glyph-name="undo" d="M761.862-64c113.726 206.032 132.888 520.306-313.862 509.824V192l-384 384 384 384v-248.372c534.962 13.942 594.57-472.214 313.862-775.628z" /><glyph unicode="&#xe010;" glyph-name="redo" d="M576 711.628V960l384-384-384-384v253.824c-446.75 10.482-427.588-303.792-313.86-509.824-280.712 303.414-221.1 789.57 313.86 775.628z" /><glyph unicode="&#xe011;" glyph-name="link" d="M320 256c17.6-17.6 47.274-16.726 65.942 1.942L702.06 574.058c18.668 18.668 19.54 48.342 1.94 65.942s-47.274 16.726-65.942-1.942L321.942 321.942C303.274 303.274 302.4 273.6 320 256zM476.888 284.888c4.56-9.05 6.99-19.16 6.99-29.696.0-17.616-6.744-34.06-18.992-46.308l-163.382-163.382c-12.248-12.248-28.694-18.992-46.308-18.992s-34.06 6.744-46.308 18.992l-99.382 99.382c-12.248 12.248-18.992 28.694-18.992 46.308s6.744 34.06 18.992 46.308l163.382 163.382c12.248 12.248 28.694 18.994 46.308 18.994 10.536.0 20.644-2.43 29.696-6.99l65.338 65.338c-27.87 21.41-61.44 32.16-95.034 32.16-39.986.0-79.972-15.166-110.308-45.502l-163.382-163.382c-60.67-60.67-60.67-159.948.0-220.618l99.382-99.382c30.334-30.332 70.32-45.5 110.306-45.5 39.988.0 79.974 15.168 110.308 45.502l163.382 163.382c55.82 55.82 60.238 144.298 13.344 205.344l-65.34-65.34zM978.498 815.116l-99.382 99.382c-30.334 30.336-70.32 45.502-110.308 45.502-39.986.0-79.972-15.166-110.308-45.502L495.118 751.116c-55.82-55.82-60.238-144.298-13.342-205.342l65.338 65.34c-4.558 9.05-6.988 19.16-6.988 29.694.0 17.616 6.744 34.06 18.992 46.308L722.5 850.498c12.248 12.248 28.694 18.994 46.308 18.994s34.06-6.746 46.308-18.994l99.382-99.382c12.248-12.248 18.992-28.694 18.992-46.308s-6.744-34.06-18.992-46.308L751.116 495.118c-12.248-12.248-28.694-18.992-46.308-18.992-10.536.0-20.644 2.43-29.696 6.99l-65.338-65.338c27.872-21.41 61.44-32.16 95.034-32.16 39.988.0 79.974 15.168 110.308 45.502l163.382 163.382c60.67 60.666 60.67 159.944.0 220.614z" /><glyph unicode="&#xe012;" glyph-name="unlink" d="M476.888 284.886c4.56-9.048 6.99-19.158 6.99-29.696.0-17.616-6.744-34.058-18.992-46.308l-163.38-163.38c-12.248-12.248-28.696-18.992-46.308-18.992s-34.06 6.744-46.308 18.992l-99.38 99.38c-12.248 12.25-18.992 28.696-18.992 46.308s6.744 34.06 18.992 46.308L272.89 400.88c12.248 12.246 28.696 18.992 46.308 18.992 10.538.0 20.644-2.43 29.696-6.988l65.338 65.336c-27.87 21.41-61.44 32.16-95.034 32.16-39.986.0-79.972-15.166-110.308-45.502l-163.38-163.382c-60.67-60.67-60.67-159.95.0-220.618l99.38-99.382c30.334-30.332 70.32-45.5 110.306-45.5 39.988.0 79.974 15.168 110.308 45.502l163.38 163.38c55.82 55.82 60.238 144.298 13.344 205.346l-65.34-65.338zm501.608 530.23-99.38 99.382c-30.334 30.336-70.32 45.502-110.308 45.502-39.986.0-79.97-15.166-110.306-45.502l-163.382-163.382c-55.82-55.82-60.238-144.298-13.342-205.342l65.338 65.34c-4.558 9.05-6.988 19.16-6.988 29.694.0 17.616 6.744 34.06 18.992 46.308l163.382 163.382c12.246 12.248 28.694 18.994 46.306 18.994 17.616.0 34.06-6.746 46.308-18.994l99.38-99.382c12.248-12.248 18.992-28.694 18.992-46.308s-6.744-34.06-18.992-46.308l-163.38-163.382c-12.248-12.248-28.694-18.992-46.308-18.992-10.536.0-20.644 2.43-29.696 6.99l-65.338-65.338c27.872-21.41 61.44-32.16 95.034-32.16 39.988.0 79.974 15.168 110.308 45.504l163.38 163.38c60.672 60.666 60.672 159.944.0 220.614zM233.368 681.376l-191.994 191.994 45.256 45.256 191.994-191.994zM384 960h64V768h-64zM0 576h192v-64H0zM790.632 214.624l191.996-191.996-45.256-45.256-191.996 191.996zM576 128h64V-64h-64zM832 384h192v-64H832z" /><glyph unicode="&#xe013;" glyph-name="anchor" d="M192 960V-64l320 320L832-64V960H192zM768 90.51l-256 256-256-256V896h512v-805.49z" /><glyph unicode="&#xe014;" glyph-name="image" d="M0 832V0h1024v832H0zM960 64H64v704h896V64zM704 608c0 53.019 42.981 96 96 96s96-42.981 96-96c0-53.019-42.981-96-96-96s-96 42.981-96 96zM896 128H128l192 512 256-320 128 96z" /><glyph unicode="&#xe015;" glyph-name="media" d="M0 832V64h1024v768H0zM192 128H64v128h128V128zm0 256H64v128h128V384zm0 256H64v128h128V640zM768 128H256v640h512V128zm192 0H832v128h128V128zm0 256H832v128h128V384zm0 256H832v128h128V640zm-576 0V256l256 192z" /><glyph unicode="&#xe016;" glyph-name="help" d="M448 256h128V128H448zM704 704c35.346.0 64-28.654 64-64V448L576 320H448v64l192 128v64H320v128h384zM512 864c-111.118.0-215.584-43.272-294.156-121.844s-121.844-183.038-121.844-294.156c0-111.118 43.272-215.584 121.844-294.156s183.038-121.844 294.156-121.844c111.118.0 215.584 43.272 294.156 121.844s121.844 183.038 121.844 294.156c0 111.118-43.272 215.584-121.844 294.156s-183.038 121.844-294.156 121.844zm0 96v0c282.77.0 512-229.23 512-512S794.77-64 512-64c-282.77.0-512 229.23-512 512s229.23 512 512 512z" /><glyph unicode="&#xe017;" glyph-name="code" d="M320 704 64 448l256-256h128L192 448l256 256zm384 0H576l256-256-256-256h128l256 256z" /><glyph unicode="&#xe018;" glyph-name="inserttime" d="M512 768c-212.076.0-384-171.922-384-384S299.922.0 512 0c212.074.0 384 171.922 384 384s-171.926 384-384 384zM715.644 180.354c-54.392-54.396-126.716-84.354-203.644-84.354s-149.25 29.958-203.646 84.354c-54.396 54.394-84.354 126.718-84.354 203.646s29.958 149.25 84.354 203.646c54.396 54.396 126.718 84.354 203.646 84.354s149.252-29.958 203.642-84.354c54.402-54.396 84.358-126.718 84.358-203.646s-29.958-149.252-84.356-203.646zM325.93 756.138l-42.94 85.878c-98.874-49.536-179.47-130.132-229.006-229.008l85.876-42.94c40.248 80.336 105.732 145.822 186.07 186.07zM884.134 570.07l85.878 42.938c-49.532 98.876-130.126 179.472-229.004 229.008l-42.944-85.878c80.338-40.248 145.824-105.732 186.07-186.068zM512 576h-64V384c0-10.11 4.7-19.11 12.022-24.972l-.012-.016 160-128 39.976 49.976L512 399.378V576z" /><glyph unicode="&#xe019;" glyph-name="preview" d="M512 640c-209.368.0-395.244-100.556-512-256 116.756-155.446 302.632-256 512-256s395.244 100.554 512 256c-116.756 155.444-302.632 256-512 256zM448 512c35.346.0 64-28.654 64-64s-28.654-64-64-64-64 28.654-64 64 28.654 64 64 64zM773.616 254.704c-39.648-20.258-81.652-35.862-124.846-46.376-44.488-10.836-90.502-16.328-136.77-16.328-46.266.0-92.282 5.492-136.768 16.324-43.194 10.518-85.198 26.122-124.846 46.376-63.02 32.202-120.222 76.41-167.64 129.298 47.418 52.888 104.62 97.1 167.64 129.298 32.336 16.522 66.242 29.946 101.082 40.04-19.888-30.242-31.468-66.434-31.468-105.336.0-106.04 85.962-192 192-192s192 85.96 192 192c0 38.902-11.582 75.094-31.466 105.34 34.838-10.096 68.744-23.52 101.082-40.042C836.638 481.1 893.834 436.89 941.254 384c-47.42-52.886-104.618-97.1-167.638-129.296zM860.918 716.278C752.198 771.832 634.806 8e2 512 8e2s-240.198-28.168-348.918-83.722c-58.772-30.032-113.732-67.904-163.082-112.076V494.996c55.338 58.566 120.694 107.754 192.194 144.29 99.62 50.904 207.218 76.714 319.806 76.714s220.186-25.81 319.804-76.716c71.502-36.536 136.858-85.724 192.196-144.29V604.2c-49.35 44.174-104.308 82.046-163.082 112.078z" /><glyph unicode="&#xe01a;" glyph-name="forecolor" d="M322.018 128l57.6 192h264.764l57.6-192h113.632L623.618 768h-223.236l-192-640h113.636zM475.618 640h72.764l57.6-192H418.018l57.6 192z" /><glyph unicode="&#xe01b;" glyph-name="table" d="M0 896V0h1024v896H0zM384 320v192h256V320H384zm256-64V64H384v192h256zm0 512V576H384v192h256zm-320 0V576H64v192h256zM64 512h256V320H64v192zm640 0h256V320H704v192zm0 64v192h256V576H704zM64 256h256V64H64v192zM704 64v192h256V64H704z" /><glyph unicode="&#xe01c;" glyph-name="hr" d="M0 512h1024V384H0z" /><glyph unicode="&#xe01d;" glyph-name="removeformat" d="M0 64h576V-64H0zM192 960h704V832H192zM277.388 128l204.688 784.164 123.85-32.328-196.25-751.836zM929.774-64 8e2 65.774 670.226-64l-62.226 62.226L737.774 128 608 257.774 670.226 320 8e2 190.226 929.774 320 992 257.774 862.226 128l129.774-129.774z" /><glyph unicode="&#xe01e;" glyph-name="sub" d="M768 50V0h128v-64H704V82l128 60v50H704v64h192V110zM676 704H540L352 516 164 704H28l256-256L28 192h136l188 188 188-188h136L420 448z" /><glyph unicode="&#xe01f;" glyph-name="sup" d="M768 754v-50h128v-64H704v146l128 60v50H704v64h192V814zm-92-50H540L352 516 164 704H28l256-256L28 192h136l188 188 188-188h136L420 448z" /><glyph unicode="&#xe020;" glyph-name="charmap" d="M704 64h256l64 128V-64H640v214.214C771.112 206.698 864 347.376 864 512c0 214.432-157.598 382.266-352 382.266-194.406.0-352-167.832-352-382.266.0-164.624 92.886-305.302 224-361.786V-64H0v256L64 64h256v32.59c-187.63 66.46-320 227.402-320 415.41.0 247.424 229.23 448 512 448s512-200.576 512-448c0-188.008-132.37-348.95-320-415.41v-32.59z" /><glyph unicode="&#xe021;" glyph-name="emoticons" d="M512 960c-282.77.0-512-229.228-512-512 0-282.77 229.228-512 512-512 282.77.0 512 229.23 512 512 0 282.772-229.23 512-512 512zm0-944C273.414 16 80 209.412 80 448c0 238.586 193.414 432 432 432 238.59.0 432-193.414 432-432 0-238.588-193.41-432-432-432zM384 640c0-35.346-28.654-64-64-64s-64 28.654-64 64 28.654 64 64 64 64-28.654 64-64zm384 0c0-35.346-28.652-64-64-64s-64 28.654-64 64 28.652 64 64 64 64-28.654 64-64zM512 308c141.074.0 262.688 57.532 318.462 123.192C809.59 259.972 674.174 128 512 128c-162.118.0-297.498 132.026-318.444 303.168 55.786-65.646 177.386-123.168 318.444-123.168z" /><glyph unicode="&#xe022;" glyph-name="print" d="M256 896h512V768H256zM960 704H64c-35.2.0-64-28.8-64-64V320c0-35.2 28.796-64 64-64h192V0h512v256h192c35.2.0 64 28.8 64 64v320c0 35.2-28.8 64-64 64zM704 64H320v320h384V64zM974.4 608c0-25.626-20.774-46.4-46.398-46.4-25.626.0-46.402 20.774-46.402 46.4s20.776 46.4 46.402 46.4c25.626.0 46.398-20.774 46.398-46.4z" /><glyph unicode="&#xe023;" glyph-name="fullscreen" d="M1024 960V576L885.74 714.26l-212-212-107.48 107.48 212 212L640 960zM245.74 821.74l212-212-107.48-107.48-212 212L0 576v384h384zm640-640L1024 320V-64H640l138.26 138.26-212 212 107.48 107.48zM457.74 286.26l-212-212L384-64H0v384l138.26-138.26 212 212z" /><glyph unicode="&#xe024;" glyph-name="spellchecker" d="M128 704h128V512h64v384c0 35.2-28.8 64-64 64H128c-35.2.0-64-28.8-64-64V512h64v192zm0 192h128V768H128v128zm832 0v64H768c-35.202.0-64-28.8-64-64V576c0-35.2 28.798-64 64-64h192v64H768v320h192zM640 8e2v96c0 35.2-28.8 64-64 64H384V512h192c35.2.0 64 28.8 64 64v96c0 35.2-8.8 64-44 64 35.2.0 44 28.8 44 64zM576 576H448v128h128V576zm0 192H448v128h128V768zM832 384 416-64 192 224l82 70 142-148 352 302z" /><glyph unicode="&#xe025;" glyph-name="nonbreaking" d="M448 384H256v128h192v192h128V512h192V384H576V192H448zm576-64V-64H0v384h128V64h768v256z" /><glyph unicode="&#xe026;" glyph-name="template" d="M384 768h128v-64H384zm192 0h128v-64H576zm320 0V512H704v64h128v128h-64v64zM320 576h128v-64H320zm192 0h128v-64H512zM192 704V576h64v-64H128v256h192v-64zM384 384h128v-64H384zm192 0h128v-64H576zm320 0V128H704v64h128v128h-64v64zM320 192h128v-64H320zm192 0h128v-64H512zM192 320V192h64v-64H128v256h192v-64zM960 896H64V0h896v896zm64 64v0V-64H0V960h1024z" /><glyph unicode="&#xe027;" glyph-name="pagebreak" d="M0 448h128v-64H0zm192 0h192v-64H192zm256 0h128v-64H448zm192 0h192v-64H640zm256 0h128v-64H896zM880 960l16-448H128l16 448h32l16-384h640l16 384zM144-64l-16 384h768L880-64h-32l-16 320H192L176-64z" /><glyph unicode="&#xe028;" glyph-name="restoredraft" d="M576 896c247.424.0 448-200.576 448-448S823.424.0 576 0v96c94.024.0 182.418 36.614 248.902 103.098S928 353.976 928 448c0 94.022-36.614 182.418-103.098 248.902S670.0240000000001 8e2 576 8e2c-94.022.0-182.418-36.614-248.902-103.098-51.14-51.138-84.582-115.246-97.306-184.902H416L192 256-32 512h164.57C163.63 729.102 350.308 896 576 896zM768 512V384H512v320h128V512z" /><glyph unicode="&#xe02a;" glyph-name="bold" d="M707.88 475.348C745.378 519.89 768 577.356 768 640c0 141.16-114.842 256-256 256H192V0h384c141.158.0 256 114.842 256 256 0 92.956-49.798 174.496-124.12 219.348zM384 768h101.5c55.968.0 101.5-57.42 101.5-128s-45.532-128-101.5-128H384v256zM543 128H384v256h159c58.45.0 106-57.42 106-128s-47.55-128-106-128z" /><glyph unicode="&#xe02b;" glyph-name="italic" d="M896 896v-64H768L448 64h128V0H128v64h128l320 768H448v64z" /><glyph unicode="&#xe02c;" glyph-name="underline" d="M704 896h128V480c0-159.058-143.268-288-320-288-176.73.0-320 128.942-320 288v416h128V480c0-40.166 18.238-78.704 51.354-108.506C408.25 338.29 458.2 320 512 320s103.75 18.29 140.646 51.494c33.116 29.802 51.354 68.34 51.354 108.506v416zM192 128h640V0H192z" /><glyph unicode="&#xe02d;" glyph-name="strikethrough" d="M731.42 442.964c63.92-47.938 100.58-116.086 100.58-186.964s-36.66-139.026-100.58-186.964C672.062 24.518 594.136.0 512 0c-82.138.0-160.062 24.518-219.42 69.036-63.92 47.938-100.58 116.086-100.58 186.964h128c0-69.382 87.926-128 192-128s192 58.618 192 128c0 69.382-87.926 128-192 128-82.138.0-160.062 24.518-219.42 69.036-63.92 47.94-100.58 116.086-100.58 186.964s36.66 139.024 100.58 186.964c59.358 44.518 137.282 69.036 219.42 69.036 82.136.0 160.062-24.518 219.42-69.036 63.92-47.94 100.58-116.086 100.58-186.964H704c0 69.382-87.926 128-192 128s-192-58.618-192-128c0-69.382 87.926-128 192-128 82.136.0 160.062-24.518 219.42-69.036zM0 448h1024v-64H0z" /><glyph unicode="&#xe02e;" glyph-name="visualchars" d="M384 896h512V768H768V0H640v768H512V0H384v448c-123.712.0-224 100.288-224 224s100.288 224 224 224z" /><glyph unicode="&#xe02f;" glyph-name="ltr" d="M448 896h512V768H832V0H704v768H576V0H448v448c-123.712.0-224 100.288-224 224s100.288 224 224 224zM64 512l256-224L64 64z" /><glyph unicode="&#xe030;" glyph-name="rtl" d="M256 896h512V768H640V0H512v768H384V0H256v448C132.288 448 32 548.288 32 672s100.288 224 224 224zM960 64 704 288l256 224z" /><glyph unicode="&#xe031;" glyph-name="copy" d="M832 704H640v64L448 960H0V192h384V-64h640v576L832 704zM832 613.49 933.49 512H832v101.49zm-384 256L549.49 768H448v101.49zM64 896h320V704h192V256H64v640zM960 0H448v192h192v448h128V448h192V0z" /><glyph unicode="&#xe032;" glyph-name="resize" d="M768 704h64v-64h-64zM640 576h64v-64h-64zm0-128h64v-64h-64zm0-128h64v-64h-64zM512 448h64v-64h-64zm0-128h64v-64h-64zm-128 0h64v-64h-64zM768 576h64v-64h-64zm0-128h64v-64h-64zm0-128h64v-64h-64zm0-128h64v-64h-64zm-128 0h64v-64h-64zm-128 0h64v-64h-64zm-128 0h64v-64h-64zm-128 0h64v-64h-64z" /><glyph unicode="&#xe033;" glyph-name="checkbox" d="M128 416l288-288 480 480-128 128-352-352-160 160z" /><glyph unicode="&#xe034;" glyph-name="browse" d="M928 832H512l-32 64H128L64 768h896zM904.34 256h74.86l44.8 448H0L64 64h484.08c-104.882 37.776-180.08 138.266-180.08 256 0 149.982 122.018 272 272 272 149.98.0 272-122.018 272-272 0-21.678-2.622-43.15-7.66-64zM1002.996 46.25 804.5 220.942c17.454 28.92 27.5 62.814 27.5 99.058.0 106.04-85.96 192-192 192s-192-85.96-192-192 85.96-192 192-192c36.244.0 70.138 10.046 99.058 27.5l174.692-198.496c22.962-26.678 62.118-28.14 87.006-3.252l5.492 5.492c24.888 24.888 23.426 64.044-3.252 87.006zM640 196c-68.484.0-124 55.516-124 124s55.516 124 124 124 124-55.516 124-124-55.516-124-124-124z" /><glyph unicode="&#xe035;" glyph-name="pastetext" d="M512 448V320h32l32 64h64V128h-48V64h224v64h-48v256h64l32-64h32v128zM832 640v160c0 17.6-14.4 32-32 32H576v64c0 35.2-28.8 64-64 64H384c-35.204.0-64-28.8-64-64v-64H96c-17.602.0-32-14.4-32-32V160c0-17.6 14.398-32 32-32h288V-64h640v704H832zM384 895.886c.034.038.072.078.114.114h127.768c.042-.036.082-.076.118-.114V832h-128v63.886zM192 704v64h512v-64H192zM960 0H448v576h512V0z" /><glyph unicode="&#xe600;" glyph-name="gamma" d="M483.2 320 336 656c-9.6 25.6-19.2 44.8-25.6 54.4s-16 12.8-25.6 12.8c-16 0-25.6-3.2-28.8-3.2v70.4c9.6 6.4 25.6 6.4 38.4 9.6 32 0 57.6-6.4 73.6-22.4 6.4-6.4 12.8-16 19.2-25.6 6.4-12.8 12.8-25.6 16-41.6l121.6-291.2 150.4 371.2h92.8l-198.4-470.4v-224h-86.4v224zM0 960V-64h1024V960H0zM960 0H64v896h896V0z" /><glyph unicode="&#xe601;" glyph-name="orientation" d="M627.2 80H48v396.8h579.2V80zM553.6 406.4h-435.2v-256h435.2v256zM259.2 732.8c176 176 457.6 176 633.6.0s176-457.6.0-633.6c-121.6-121.6-297.6-160-454.4-108.8 121.6-28.8 262.4 9.6 361.6 108.8 150.4 150.4 160 384 22.4 521.6-121.6 121.6-320 128-470.4 19.2l86.4-86.4L144 531.2l22.4 294.4 92.8-92.8z" /><glyph unicode="&#xe602;" glyph-name="invert" d="M892.8-22.4l-89.6 89.6c-70.4-80-172.8-131.2-288-131.2-208 0-380.8 166.4-384 377.6.0.0.0.0.0.0.0 3.2.0 3.2.0 6.4s0 3.2.0 6.4v0c0 0 0 0 0 3.2.0.0.0 3.2.0 3.2 3.2 105.6 48 211.2 105.6 304l-192 192 44.8 44.8 182.4-182.4c0 0 0 0 0 0l569.6-569.6c0 0 0 0 0 0l99.2-99.2-48-44.8zM896 326.4c0 0 0 0 0 0 0 3.2.0 6.4.0 6.4-9.6 316.8-384 627.2-384 627.2s-108.8-89.6-208-220.8l70.4-70.4c6.4 9.6 16 22.4 22.4 32 41.6 51.2 83.2 96 115.2 128v0c32-32 73.6-76.8 115.2-128 108.8-137.6 169.6-265.6 172.8-371.2.0.0.0-3.2.0-3.2v0 0c0-3.2.0-3.2.0-6.4s0-3.2.0-3.2v0 0c0-22.4-3.2-41.6-9.6-64l76.8-76.8c16 41.6 28.8 89.6 28.8 137.6.0.0.0.0.0.0.0 3.2.0 3.2.0 6.4s0 3.2.0 6.4z" /><glyph unicode="&#xe603;" glyph-name="codesample" d="M199.995 578.002v104.002c0 43.078 34.923 78.001 78.001 78.001h26v104.002h-26c-100.518.0-182.003-81.485-182.003-182.003V578.002c0-43.078-34.923-78.001-78.001-78.001h-26v-104.002h26c43.078.0 78.001-34.923 78.001-78.001v-104.002c0-100.515 81.485-182.003 182.003-182.003h26v104.002h-26c-43.078.0-78.001 34.923-78.001 78.001v104.002c0 50.931-20.928 96.966-54.646 130.002 33.716 33.036 54.646 79.072 54.646 130.002zm624.01.0v104.002c0 43.078-34.923 78.001-78.001 78.001h-26v104.002h26c100.515.0 182.003-81.485 182.003-182.003V578.002c0-43.078 34.923-78.001 78.001-78.001h26v-104.002h-26c-43.078.0-78.001-34.923-78.001-78.001v-104.002c0-100.515-81.488-182.003-182.003-182.003h-26v104.002h26c43.078.0 78.001 34.923 78.001 78.001v104.002c0 50.931 20.928 96.966 54.646 130.002-33.716 33.036-54.646 79.072-54.646 130.002zM616.002 603.285c0-57.439-46.562-104.002-104.002-104.002s-104.002 46.562-104.002 104.002c0 57.439 46.562 104.002 104.002 104.002s104.002-46.562 104.002-104.002zM512 448.717c-57.439.0-104.002-46.562-104.002-104.002.0-55.845 26-100.115 105.752-103.88-23.719-33.417-59.441-46.612-105.752-50.944v-61.751c0 0 208.003-18.144 208.003 216.577-.202 57.441-46.56 104.004-104.002 104.004z" /><glyph unicode="&#xe604;" glyph-name="tablerowprops" d="M0 896V0h1024v896H0zM640 256V64H384v192h256zm0 512V576H384v192h256zm-320 0V576H64v192h256zM704 576v192h256V576H704zM64 256h256V64H64v192zM704 64v192h256V64H704z" /><glyph unicode="&#xe605;" glyph-name="tablecellprops" d="M0 896V0h1024v896H0zM640 256V64H384v192h256zm0 512V576H384v192h256zm-320 0V576H64v192h256zM64 512h256V320H64v192zm640 0h256V320H704v192zm0 64v192h256V576H704zM64 256h256V64H64v192zM704 64v192h256V64H704z" /><glyph unicode="&#xe606;" glyph-name="table2" d="M0 896V64h1024v832H0zM320 128H64v192h256V128zm0 256H64v192h256V384zM640 128H384v192h256V128zm0 256H384v192h256V384zM960 128H704v192h256V128zm0 256H704v192h256V384zm0 256H64v192h896V640z" /><glyph unicode="&#xe607;" glyph-name="tablemergecells" d="M0 896V0h1024v896H0zM384 64v448h576V64H384zM640 768V576H384v192h256zm-320 0V576H64v192h256zM64 512h256V320H64v192zm640 64v192h256V576H704zM64 256h256V64H64v192z" /><glyph unicode="&#xe608;" glyph-name="tableinsertcolbefore" d="M320 188.8v182.4H137.6v89.6H320v182.4h86.4v-182.4H592v-89.6H406.4v-182.4zM0 896V0h1024v896H0zM640 64H64v704h576V64zm320 0H704v192h256V64zm0 256H704v192h256V320zm0 256H704v192h256V576z" /><glyph unicode="&#xe609;" glyph-name="tableinsertcolafter" d="M704 643.2v-182.4h182.4v-89.6H704v-182.4h-86.4v182.4H432v89.6h185.6v182.4zM0 896V0h1024v896H0zM320 64H64v192h256V64zm0 256H64v192h256V320zm0 256H64v192h256V576zM960 64H384v704h576V64z" /><glyph unicode="&#xe60a;" glyph-name="tableinsertrowbefore" d="M691.2 508.8h-144v-144h-70.4v144h-144V576h144v144h70.4V576h144zM0 896V0h1024v896H0zM320 64H64v192h256V64zm320 0H384v192h256V64zm320 0H704v192h256V64zm0 252.8H64V768h896V316.8z" /><glyph unicode="&#xe60b;" glyph-name="tableinsertrowafter" d="M332.8 323.2h144v144h70.4v-144h144V256h-144V112h-70.4v144h-144zM0 896V0h1024v896H0zM384 768h256V576H384v192zM64 768h256V576H64v192zM960 64H64v451.2h896v-451.2zm0 512H704v192h256V576z" /><glyph unicode="&#xe60d;" glyph-name="tablesplitcells" d="M0 896V0h1024v896H0zM384 768h256V576H384v192zM320 64H64v192h256V64zm0 256H64v192h256V320zm0 256H64v192h256V576zM960 64H384v448h576V64zm0 512H704v192h256V576zM864 156.8l-60.8-60.8L672 227.2 540.8 96l-60.8 60.8 131.2 131.2-131.2 131.2 60.8 60.8L672 348.8 803.2 480l60.8-60.8L732.8 288z" /><glyph unicode="&#xe60e;" glyph-name="tabledelete" d="M0 896h1024V0H0v896zM60.8 768V64H960v704h-899.2zM809.6 211.2l-96-96L508.8 320l-204.8-204.8-96 96L412.8 416 208 620.8l96 96 204.8-204.8 204.8 204.8 96-96-204.8-204.8z" /><glyph unicode="&#xe62a;" glyph-name="tableleftheader" d="M0 896V64h1024v832H0zM640 128H384v192h256V128zm0 256H384v192h256V384zm0 256H384v192h256V640zM960 128H704v192h256V128zm0 256H704v192h256V384zm0 256H704v192h256V640z" /><glyph unicode="&#xe62b;" glyph-name="tabletopheader" d="M0 896V64h1024v832H0zM320 128H64v192h256V128zm0 256H64v192h256V384zM640 128H384v192h256V128zm0 256H384v192h256V384zM960 128H704v192h256V128zm0 256H704v192h256V384z" /><glyph unicode="&#xe800;" glyph-name="tabledeleterow" d="M886.4 572.8l-156.8-156.8 160-160-76.8-76.8-160 160-156.8-156.8-76.8 73.6 160 160-163.2 163.2 76.8 76.8 163.2-163.2 156.8 156.8 73.6-76.8zM0 896V0h1024v896H0zM960 576h-22.4l-64-64H960V320h-89.6l64-64H960V64H64v192h310.4l64 64H64v192h371.2l-64 64H64v192h896V576z" /><glyph unicode="&#xe801;" glyph-name="tabledeletecol" d="M320 499.2l64-64v-12.8l-64-64v140.8zM640 422.4l64-64V496l-64-64v-9.6zM1024 896V0H0v896h1024zM960 768H704v-51.2l-12.8 12.8-51.2-51.2v89.6H384v-89.6l-51.2 51.2-12.8-12.8V768H64V64h256v118.4l35.2-35.2L384 176V60.8h256V176l48-48 16 16V60.8h256V768zM672 662.4l-156.8-156.8-163.2 163.2-76.8-76.8 163.2-163.2L281.6 272l76.8-76.8L515.2 352l160-160 76.8 76.8-160 160 156.8 156.8-76.8 76.8z" /><glyph unicode="&#xe900;" glyph-name="a11y" d="M960 704v64L512 640 64 768v-64l320-128V320L256-128h64l192 448 192-448h64L640 320v256zM416 8e2q0 40 28 68t68 28 68-28 28-68-28-68-68-28-68 28-28 68z" /><glyph unicode="&#xe901;" glyph-name="toc" d="M0 896h128V768H0v128zm192 0h832V768H192v128zM0 512h128V384H0v128zm192 0h832V384H192v128zM0 128h128V0H0v128zm192 0h832V0H192v128zm0 576h128V576H192v128zm192 0h640V576H384v128zM192 320h128V192H192v128zm192 0h640V192H384v128z" /><glyph unicode="&#xe902;" glyph-name="fill" d="M521.6 915.2l-67.2-67.2-86.4 86.4-86.4-86.4 86.4-86.4-368-368 432-432L950.4 480l-428.8 435.2zM435.2 134.4l-262.4 262.4 35.2 35.2 576 51.2-348.8-348.8zM953.6 409.6c-6.4-6.4-16-16-28.8-32-28.8-32-41.6-64-41.6-89.6v0 0 0 0 0 0 0c0-16 6.4-35.2 22.4-48 12.8-12.8 32-22.4 48-22.4s35.2 6.4 48 22.4 22.4 32 22.4 48v0 0 0 0 0 0 0c0 25.6-12.8 54.4-41.6 89.6-9.6 16-22.4 25.6-28.8 32v0z" /><glyph unicode="&#xe903;" glyph-name="borderwidth" d="M0 265.6h1024v-128H0v128zM0 32h1024v-64H0v64zM0 566.4h1024v-192H0v192zM0 928h1024V672H0v256z" /><glyph unicode="&#xe904;" glyph-name="line" d="M739.2 627.2l-502.4-502.4h-185.6v185.6l502.4 502.4 185.6-185.6zM803.2 688 617.6 873.6l67.2 67.2c22.4 22.4 54.4 22.4 76.8.0l108.8-108.8c22.4-22.4 22.4-54.4.0-76.8l-67.2-67.2zM41.6 48h940.8V-64h-940.8V48z" /><glyph unicode="&#xe905;" glyph-name="count" d="M0 480h1024v-64H0v64zM304 912V572.8h-67.2v272h-67.2V912zM444.8 694.4V640h134.4v-67.2H377.6v153.6l134.4 64v54.4H377.6V912h201.6V758.4zM854.4 912V572.8h-204.8V640h137.6v67.2h-137.6v70.4h137.6v67.2h-137.6v67.2zM115.2 166.4c3.2 57.6 38.4 83.2 108.8 83.2 38.4.0 67.2-9.6 86.4-25.6s25.6-35.2 25.6-70.4v-112c0-25.6.0-28.8 9.6-41.6H272c-3.2 9.6-3.2 9.6-6.4 19.2-22.4-19.2-41.6-25.6-70.4-25.6-54.4.0-89.6 32-89.6 76.8s28.8 70.4 99.2 80l38.4 6.4c16 3.2 22.4 6.4 22.4 16 0 12.8-12.8 22.4-38.4 22.4s-41.6-9.6-44.8-28.8h-67.2zm147.2-51.2c-6.4-3.2-12.8-6.4-25.6-6.4l-25.6-6.4c-25.6-6.4-38.4-16-38.4-28.8.0-16 12.8-25.6 35.2-25.6s41.6 9.6 54.4 32v35.2zM390.4 336H464V224c22.4 16 41.6 22.4 67.2 22.4 64 0 105.6-51.2 105.6-124.8.0-76.8-44.8-134.4-108.8-134.4-32 0-48 9.6-67.2 35.2v-28.8h-70.4V336zM460.8 121.6c0-41.6 22.4-70.4 51.2-70.4s51.2 28.8 51.2 70.4c0 44.8-19.2 70.4-51.2 70.4-28.8.0-51.2-28.8-51.2-70.4zM851.2 153.6c-3.2 22.4-19.2 35.2-44.8 35.2-32 0-51.2-25.6-51.2-70.4.0-48 19.2-73.6 51.2-73.6 25.6.0 41.6 12.8 44.8 41.6l70.4-3.2c-9.6-60.8-54.4-96-118.4-96-73.6.0-121.6 51.2-121.6 128 0 80 48 131.2 124.8 131.2 64 0 108.8-35.2 112-96h-67.2z" /><glyph unicode="&#xe906;" glyph-name="reload" d="M889.68 793.68c-93.608 102.216-228.154 166.32-377.68 166.32-282.77.0-512-229.23-512-512h96c0 229.75 186.25 416 416 416 123.02.0 233.542-53.418 309.696-138.306l-149.696-149.694h352v352l-134.32-134.32zM928 448c0-229.75-186.25-416-416-416-123.02.0-233.542 53.418-309.694 138.306L352 320H0V-32l134.32 134.32C227.928.1039999999999992 362.474-64 512-64c282.77.0 512 229.23 512 512h-96z" /><glyph unicode="&#xe907;" glyph-name="translate" d="M553.6 304l-118.4 118.4c80 89.6 137.6 195.2 172.8 304h137.6v92.8h-326.4v92.8h-92.8v-92.8h-326.4v-92.8h518.4c-32-89.6-80-176-147.2-249.6-44.8 48-80 99.2-108.8 156.8h-92.8c35.2-76.8 80-147.2 137.6-211.2l-236.8-233.6 67.2-67.2 233.6 233.6 144-144c3.2.0 38.4 92.8 38.4 92.8zM816 540.8h-92.8l-208-560H608l51.2 140.8H880l51.2-140.8h92.8l-208 560zM691.2 214.4 768 416l76.8-201.6h-153.6z" /><glyph unicode="&#xe908;" glyph-name="drag" d="M576 896h128V768H576v128zm0-256h128V512H576v128zm-256 0h128V512H320v128zM576 384h128V256H576v128zm-256 0h128V256H320v128zm0-256h128V0H320v128zm256 0h128V0H576v128zM320 896h128V768H320v128z" /><glyph unicode="&#xe909;" glyph-name="format-painter" d="M768 746.667v42.667c0 23.467-19.2 42.667-42.667 42.667h-512c-23.467.0-42.667-19.2-42.667-42.667V618.667c0-23.467 19.2-42.667 42.667-42.667h512C748.8 576 768 595.2 768 618.667v42.667h42.667v-170.667h-426.667v-384c0-23.467 19.2-42.667 42.667-42.667H512c23.467.0 42.667 19.2 42.667 42.667v298.667H896v341.333H768z" /><glyph unicode="&#xe90b;" glyph-name="home" d="M1024 369.556 512 766.982.0 369.554v162.038l512 397.426 512-397.428zM896 384V0H640v256H384V0H128v384l384 288z" /><glyph unicode="&#xe911;" glyph-name="books" d="M576.234 670.73l242.712 81.432 203.584-606.784-242.712-81.432zM0 64h256v704H0V64zM64 640h128v-64H64v64zM320 64h256v704H320V64zm64 576h128v-64H384v64z" /><glyph unicode="&#xe914;" glyph-name="upload" d="M839.432 760.57c27.492-27.492 50.554-78.672 55.552-120.57H576v318.984c41.898-4.998 93.076-28.06 120.568-55.552l142.864-142.862zM512 576v384H144c-44 0-80-36-80-80V16c0-44 36-80 80-80h672c44 0 80 36 80 80v560H512zm64-384V0H384v192H224l256 256 256-256H576z" /><glyph unicode="&#xe915;" glyph-name="editimage" d="M768 416V64H128v640h352l128 128H96c-52.8.0-96-43.2-96-96V32c0-52.8 43.2-96 96-96h704c52.798.0 96 43.2 96 96v512L768 416zm96 544-608-608V192h160l608 608c0 96-64 160-160 160zM416 320l-48 48 480 480 48-48-480-480z" /><glyph unicode="&#xe91c;" glyph-name="bubble" d="M928 896H96c-52.8.0-96-43.2-96-96V288c0-52.8 43.2-96 96-96h160V-64l307.2 256H928c52.8.0 96 43.2 96 96v512c0 52.8-43.2 96-96 96zM896 320H516.858l-196.858-174.714V320h-192v448h768V320z" /><glyph unicode="&#xe91d;" glyph-name="user" d="M622.826 257.264c-22.11 3.518-22.614 64.314-22.614 64.314s64.968 64.316 79.128 150.802c38.09.0 61.618 91.946 23.522 124.296 1.59 34.054 48.96 267.324-190.862 267.324s-192.45-233.27-190.864-267.324c-38.094-32.35-14.57-124.296 23.522-124.296 14.158-86.486 79.128-150.802 79.128-150.802s-.504-60.796-22.614-64.314c-71.22-11.332-337.172-128.634-337.172-257.264h896c0 128.63-265.952 245.932-337.174 257.264z" /><glyph unicode="&#xe926;" glyph-name="lock" d="M592 512h-16v192c0 105.87-86.13 192-192 192H256c-105.87.0-192-86.13-192-192V512H48c-26.4.0-48-21.6-48-48V-16c0-26.4 21.6-48 48-48h544c26.4.0 48 21.6 48 48v480c0 26.4-21.6 48-48 48zM192 704c0 35.29 28.71 64 64 64h128c35.29.0 64-28.71 64-64V512H192v192z" /><glyph unicode="&#xe927;" glyph-name="unlock" d="M768 896c105.87.0 192-86.13 192-192V512H832v192c0 35.29-28.71 64-64 64H640c-35.29.0-64-28.71-64-64V512h16c26.4.0 48-21.6 48-48V-16c0-26.4-21.6-48-48-48H48C21.6-64 0-42.4.0-16v480c0 26.4 21.6 48 48 48h4e2v192c0 105.87 86.13 192 192 192h128z" /><glyph unicode="&#xe928;" glyph-name="settings" d="M448 832v16c0 26.4-21.6 48-48 48H240c-26.4.0-48-21.6-48-48v-16H0V704h192v-16c0-26.4 21.6-48 48-48h160c26.4.0 48 21.6 48 48v16h576v128H448zM256 704v128h128V704H256zM832 528c0 26.4-21.6 48-48 48H624c-26.4.0-48-21.6-48-48v-16H0V384h576v-16c0-26.4 21.6-48 48-48h160c26.4.0 48 21.6 48 48v16h192v128H832v16zM640 384v128h128V384H640zM448 208c0 26.4-21.6 48-48 48H240c-26.4.0-48-21.6-48-48v-16H0V64h192V48c0-26.4 21.6-48 48-48h160c26.4.0 48 21.6 48 48v16h576v128H448v16zM256 64v128h128V64H256z" /><glyph unicode="&#xe92a;" glyph-name="remove2" d="M192-64h640l64 704H128zM640 832v128H384V832H64V640l64 64h768l64-64v192H640zm-64 0H448v64h128v-64z" /><glyph unicode="&#xe92d;" glyph-name="menu" d="M384 896h256V640H384zm0-320h256V320H384zm0-320h256V0H384z" /><glyph unicode="&#xe930;" glyph-name="warning" d="M1009.956 44.24l-437.074 871.112c-16.742 29.766-38.812 44.648-60.882 44.648s-44.14-14.882-60.884-44.648l-437.074-871.112c-33.486-59.532-5-108.24 63.304-108.24h869.308c68.302.0 96.792 48.708 63.302 108.24zM512 64c-35.346.0-64 28.654-64 64 0 35.348 28.654 64 64 64 35.348.0 64-28.652 64-64 0-35.346-28.652-64-64-64zm44 192h-88l-20 256c0 35.346 28.654 64 64 64s64-28.654 64-64l-20-256z" /><glyph unicode="&#xe931;" glyph-name="question" d="M448 256h128V128H448zM704 704c35.346.0 64-28.654 64-64V448L576 320H448v64l192 128v64H320v128h384zM512 864c-111.118.0-215.584-43.272-294.156-121.844s-121.844-183.038-121.844-294.156c0-111.118 43.272-215.584 121.844-294.156s183.038-121.844 294.156-121.844c111.118.0 215.584 43.272 294.156 121.844s121.844 183.038 121.844 294.156c0 111.118-43.272 215.584-121.844 294.156s-183.038 121.844-294.156 121.844zm0 96v0c282.77.0 512-229.23 512-512S794.77-64 512-64c-282.77.0-512 229.23-512 512s229.23 512 512 512z" /><glyph unicode="&#xe932;" glyph-name="pluscircle" d="M512 960c-282.77.0-512-229.23-512-512S229.23-64 512-64s512 229.23 512 512-229.23 512-512 512zm0-896c-212.078.0-384 171.922-384 384s171.922 384 384 384c212.078.0 384-171.922 384-384S724.078 64 512 64zM768 384H576V192H448v192H256v128h192v192h128V512h192z" /><glyph unicode="&#xe933;" glyph-name="info" d="M512 960c-282.77.0-512-229.23-512-512S229.23-64 512-64s512 229.23 512 512-229.23 512-512 512zM448 768h128V640H448v128zM640 128H384v64h64v256h-64v64h192V192h64v-64z" /><glyph unicode="&#xe934;" glyph-name="notice" d="M1024 224 736 960H288L0 672V224L288-64h448l288 288v448L736 960zM576 128H448v128h128V128zm0 256H448v384h128V384z" /><glyph unicode="&#xe935;" glyph-name="drop" d="M864.626 486.838C798.872 670.278 659.516 834.988 512 960c-147.516-125.012-286.87-289.722-352.626-473.162-40.664-113.436-44.682-236.562 12.584-345.4 65.846-125.14 198.632-205.438 340.042-205.438s274.196 80.298 340.04 205.44c57.27 108.838 53.25 231.962 12.586 345.398zM738.764 201.044C694.962 117.79200000000002 605.952 64 512 64c-55.12.0-108.524 18.536-152.112 50.652 13.242-1.724 26.632-2.652 40.112-2.652 117.426.0 228.668 67.214 283.402 171.242 44.878 85.292 40.978 173.848 23.882 244.338 14.558-28.15 26.906-56.198 36.848-83.932 22.606-63.062 40.024-156.34-5.368-242.604z" /><glyph unicode="&#xe939;" glyph-name="minus" d="M0 544V352c0-17.672 14.328-32 32-32h960c17.672.0 32 14.328 32 32v192c0 17.672-14.328 32-32 32H32c-17.672.0-32-14.328-32-32z" /><glyph unicode="&#xe93a;" glyph-name="plus" d="M992 576H640v352c0 17.672-14.328 32-32 32H416c-17.672.0-32-14.328-32-32V576H32c-17.672.0-32-14.328-32-32V352c0-17.672 14.328-32 32-32h352V-32c0-17.672 14.328-32 32-32h192c17.672.0 32 14.328 32 32v352h352c17.672.0 32 14.328 32 32v192c0 17.672-14.328 32-32 32z" /><glyph unicode="&#xe93b;" glyph-name="arrowup" d="M0 320l192-192 320 320 320-320 192 192-511.998 512z" /><glyph unicode="&#xe93c;" glyph-name="arrowright" d="M384 960 192 768l320-320-320-320L384-64l512 512z" /><glyph unicode="&#xe93d;" glyph-name="arrowdown" d="M1024 576 832 768 512 448 192 768 0 576l512-511.998z" /><glyph unicode="&#xe93f;" glyph-name="arrowup2" d="M768 320 512 576 256 320z" /><glyph unicode="&#xe940;" glyph-name="arrowdown2" d="M256 576l256-256 256 256z" /><glyph unicode="&#xe941;" glyph-name="menu2" d="M256 704l256-256 256 256zM255.996 384.004l256-256 256 256z" /><glyph unicode="&#xe961;" glyph-name="newtab" d="M704 384l128 128V0H64v768h512L448 640H192V128h512zM960 896V544L829.256 674.744 474.51 320H384v90.512l354.744 354.744-130.744 130.744z" /><glyph unicode="&#xeaa8;" glyph-name="rotateleft" d="M607.998 831.986c-212.07.0-383.986-171.916-383.986-383.986h-191.994l246.848-246.848 246.848 246.848h-191.994c0 151.478 122.798 274.276 274.276 274.276 151.48.0 274.276-122.798 274.276-274.276.0-151.48-122.796-274.276-274.276-274.276v-109.71c212.07.0 383.986 171.916 383.986 383.986s-171.916 383.986-383.986 383.986z" /><glyph unicode="&#xeaa9;" glyph-name="rotateright" d="M416.002 831.986c212.07.0 383.986-171.916 383.986-383.986h191.994L745.134 201.152 498.286 448H690.28c0 151.478-122.798 274.276-274.276 274.276-151.48.0-274.276-122.798-274.276-274.276.0-151.48 122.796-274.276 274.276-274.276v-109.71c-212.07.0-383.986 171.916-383.986 383.986s171.916 383.986 383.986 383.986z" /><glyph unicode="&#xeaaa;" glyph-name="flipv" d="M0 576h1024v384zM1024 0v384H0z" /><glyph unicode="&#xeaac;" glyph-name="fliph" d="M576 960V-64h384zM0-64h384V960z" /><glyph unicode="&#xeb35;" glyph-name="zoomin" d="M992.262 88.604l-242.552 206.294c-25.074 22.566-51.89 32.926-73.552 31.926 57.256 67.068 91.842 154.078 91.842 249.176.0 212.078-171.922 384-384 384-212.076.0-384-171.922-384-384s171.922-384 384-384c95.098.0 182.108 34.586 249.176 91.844-1-21.662 9.36-48.478 31.926-73.552l206.294-242.552c35.322-39.246 93.022-42.554 128.22-7.356s31.892 92.898-7.354 128.22zM384 320c-141.384.0-256 114.616-256 256s114.616 256 256 256 256-114.616 256-256-114.614-256-256-256zm64 448H320V640H192V512h128V384h128v128h128v128H448z" /><glyph unicode="&#xeb36;" glyph-name="zoomout" d="M992.262 88.604l-242.552 206.294c-25.074 22.566-51.89 32.926-73.552 31.926 57.256 67.068 91.842 154.078 91.842 249.176.0 212.078-171.922 384-384 384-212.076.0-384-171.922-384-384s171.922-384 384-384c95.098.0 182.108 34.586 249.176 91.844-1-21.662 9.36-48.478 31.926-73.552l206.294-242.552c35.322-39.246 93.022-42.554 128.22-7.356s31.892 92.898-7.354 128.22zM384 320c-141.384.0-256 114.616-256 256s114.616 256 256 256 256-114.616 256-256-114.614-256-256-256zM192 640h384V512H192z" /><glyph unicode="&#xeba7;" glyph-name="sharpen" d="M768 832H256L0 576 512 0l512 576-256 256zM512 181.334V184h-2.37l-14.222 16H512v16h-30.814l-14.222 16H512v16h-59.258l-14.222 16H512v16h-87.704l-14.222 16H512v16H395.852l-14.222 16H512v16H367.408l-14.222 16H512v16H338.962l-14.222 16H512v16h-201.482l-14.222 16H512v16H282.074l-14.222 16H512v16H253.628l-14.222 16H512v16h-286.816l-14.222 16H512v16H196.74l-14.222 16H512v16h-343.706l-7.344 8.262 139.072 139.072H512V712h215.314l16-16H512v-16h247.314l16-16h-263.314v-16h279.314l16-16h-295.314v-16h311.314l16-16h-327.314v-16h343.312l7.738-7.738-351.05-394.928z" /><glyph unicode="&#xec6a;" glyph-name="options" d="M64 768h896V576H64zm0-256h896V320H64zm0-256h896V64H64z" /><glyph unicode="&#xeccc;" glyph-name="sun" d="M512 128c35.346.0 64-28.654 64-64V0c0-35.346-28.654-64-64-64s-64 28.654-64 64v64c0 35.346 28.654 64 64 64zm0 640c-35.346.0-64 28.654-64 64v64c0 35.346 28.654 64 64 64s64-28.654 64-64v-64c0-35.346-28.654-64-64-64zM960 512c35.346.0 64-28.654 64-64s-28.654-64-64-64h-64c-35.348.0-64 28.654-64 64s28.652 64 64 64h64zM192 448c0-35.346-28.654-64-64-64H64c-35.346.0-64 28.654-64 64s28.654 64 64 64h64c35.346.0 64-28.654 64-64zM828.784 221.726l45.256-45.258c24.992-24.99 24.992-65.516.0-90.508-24.994-24.992-65.518-24.992-90.51.0l-45.256 45.256c-24.992 24.99-24.992 65.516.0 90.51 24.994 24.992 65.518 24.992 90.51.0zM195.216 674.274 149.96 719.53c-24.994 24.994-24.994 65.516.0 90.51s65.516 24.994 90.51.0l45.256-45.256c24.994-24.994 24.994-65.516.0-90.51s-65.516-24.994-90.51.0zm633.568.0c-24.992-24.992-65.516-24.992-90.51.0-24.992 24.994-24.992 65.516.0 90.51l45.256 45.254c24.992 24.994 65.516 24.994 90.51.0 24.992-24.994 24.992-65.516.0-90.51l-45.256-45.254zM195.216 221.726c24.992 24.992 65.518 24.992 90.508.0 24.994-24.994 24.994-65.52.0-90.51l-45.254-45.256c-24.994-24.992-65.516-24.992-90.51.0s-24.994 65.518.0 90.508l45.256 45.258zM512 704c-141.384.0-256-114.616-256-256 0-141.382 114.616-256 256-256 141.382.0 256 114.618 256 256 0 141.384-114.616 256-256 256zm0-416c-88.366.0-160 71.634-160 160s71.634 160 160 160 160-71.634 160-160-71.634-160-160-160z" /><glyph unicode="&#xeccd;" glyph-name="moon" d="M715.812 895.52c-60.25 34.784-124.618 55.904-189.572 64.48 122.936-160.082 144.768-384.762 37.574-570.42-107.2-185.67-312.688-279.112-512.788-252.68 39.898-51.958 90.376-97.146 150.628-131.934 245.908-141.974 560.37-57.72 702.344 188.198 141.988 245.924 57.732 560.372-188.186 702.356z" /><glyph unicode="&#xecd4;" glyph-name="contrast" d="M512 960c-282.77.0-512-229.23-512-512S229.23-64 512-64s512 229.23 512 512-229.23 512-512 512zM128 448c0 212.078 171.922 384 384 384V64c-212.078.0-384 171.922-384 384z" /><glyph unicode="&#xed6a;" glyph-name="remove22" d="M893.254 738.746l-90.508 90.508L512 538.51l-290.746 290.744-90.508-90.506 290.746-290.748-290.746-290.746 90.508-90.508 290.746 290.746 290.746-290.746 90.508 90.51-290.744 290.744z" /><glyph unicode="&#xedc0;" glyph-name="arrowleft" d="M672-64l192 192-320 320 320 320-192 192-512-512z" /><glyph unicode="&#xedf9;" glyph-name="resize2" d="M0 896V512c0-35.346 28.654-64 64-64s64 28.654 64 64v229.488L805.488 64H576c-35.346.0-64-28.652-64-64 0-35.346 28.654-64 64-64h384c35.346.0 64 28.654 64 64v384c0 35.348-28.654 64-64 64s-64-28.652-64-64V154.512l-677.488 677.488h229.488c35.346.0 64 28.654 64 64s-28.652 64-64 64h-384c-35.346.0-64-28.654-64-64z" /><glyph unicode="&#xee78;" glyph-name="crop" d="M832 704l192 192-64 64-192-192H320v192H192V768H0V640h192V128h512V-64h128v192h192v128H832v448zM320 640h320L320 320v320zm64-384 320 320V256H384z" /></font>
</defs>
</svg>
