<svg xmlns="http://www.w3.org/2000/svg"><defs><font id="tinymce-small" horiz-adv-x="1024"><font-face units-per-em="1024" ascent="960" descent="-64" /><missing-glyph horiz-adv-x="1024" /><glyph unicode="&#x20;" horiz-adv-x="512" /><glyph unicode="&#xe000;" glyph-name="save" d="M960 80v591.938L736.062 896H144c-44.182.0-80-35.816-80-80V80c0-44.184 35.818-80 80-80h736c44.184.0 80 35.816 80 80zM576 768h64V576h-64v192zM704 128H320v255.882c.034.042.076.082.116.118h383.77c.04-.036.082-.076.116-.118L704 128zm128 0h-64v256c0 35.2-28.8 64-64 64H320c-35.2.0-64-28.8-64-64V128h-64v640h64V576c0-35.2 28.8-64 64-64h320c35.2.0 64 28.8 64 64v171.01l128-128.072V128z" /><glyph unicode="&#xe001;" glyph-name="newdocument" d="M850.746 717.254l-133.492 133.49c-24.888 24.892-74.054 45.256-109.254 45.256H192c-35.2.0-64-28.8-64-64V64c0-35.2 28.8-64 64-64h640c35.2.0 64 28.8 64 64v544c0 35.2-20.366 84.364-45.254 109.254zM805.49 672.002c6.792-6.796 13.792-19.162 18.894-32.002H640v184.386c12.84-5.1 25.204-12.1 32-18.896l133.49-133.488zM831.884 64h-639.77c-.04.034-.082.076-.114.116v767.77c.034.04.076.082.114.114H576V576h256v-511.884c-.034-.04-.076-.082-.116-.116z" /><glyph unicode="&#xe002;" glyph-name="fullpage" d="M1024 367.542v160.916l-159.144 15.914c-8.186 30.042-20.088 58.548-35.21 84.98l104.596 127.838-113.052 113.05-127.836-104.596c-26.434 15.124-54.942 27.026-84.982 35.208l-15.914 159.148H431.542l-15.914-159.146c-30.042-8.186-58.548-20.086-84.98-35.208l-127.838 104.594-113.05-113.05 104.596-127.836c-15.124-26.432-27.026-54.94-35.21-84.98L0 528.458V367.542l159.146-15.914c8.186-30.042 20.086-58.548 35.21-84.982l-104.596-127.836 113.048-113.048 127.838 104.596c26.432-15.124 54.94-27.028 84.98-35.21l15.916-159.148h160.916l15.914 159.144c30.042 8.186 58.548 20.088 84.982 35.21l127.836-104.596 113.048 113.048-104.596 127.836c15.124 26.434 27.028 54.942 35.21 84.98L1024 367.542zM704 384 576 256H448L320 384v128l128 128h128l128-128V384z" /><glyph unicode="&#xe003;" glyph-name="alignleft" d="M64 768h896V640H64zm0-384h896V256H64zm0 192h576V448H64zm0-384h576V64H64z" /><glyph unicode="&#xe004;" glyph-name="aligncenter" d="M64 768h896V640H64zm0-384h896V256H64zM256 576h512V448H256zm0-384h512V64H256z" /><glyph unicode="&#xe005;" glyph-name="alignright" d="M64 768h896V640H64zm0-384h896V256H64zM384 576h576V448H384zm0-384h576V64H384z" /><glyph unicode="&#xe006;" glyph-name="alignjustify" d="M64 768h896V640H64zm0-384h896V256H64zm0 192h896V448H64zm0-384h896V64H64z" /><glyph unicode="&#xe007;" glyph-name="cut" d="M864.408 289.868c-46.47 46.47-106.938 68.004-161.082 62.806L640 416l192 192c0 0 128 128 0 256L512 544 192 864c-128-128 0-256 0-256l192-192-63.326-63.326c-54.144 5.198-114.61-16.338-161.08-62.806-74.98-74.98-85.112-186.418-22.626-248.9 62.482-62.482 173.92-52.354 248.9 22.626 46.47 46.468 68.002 106.938 62.806 161.08l63.326 63.326 63.328-63.328c-5.196-54.144 16.336-114.61 62.806-161.078 74.978-74.98 186.418-85.112 248.898-22.626 62.488 62.482 52.356 173.918-22.624 248.9zM353.124 201.422c-2.212-24.332-15.02-49.826-35.14-69.946-22.212-22.214-51.08-35.476-77.218-35.476-10.524.0-25.298 2.228-35.916 12.848-21.406 21.404-17.376 73.132 22.626 113.136 22.212 22.214 51.08 35.476 77.218 35.476 10.524.0 25.298-2.228 35.916-12.848 13.112-13.11 13.47-32.688 12.514-43.19zM512 352c-35.346.0-64 28.654-64 64s28.654 64 64 64 64-28.654 64-64-28.654-64-64-64zM819.152 108.848c-10.62-10.62-25.392-12.848-35.916-12.848-26.138.0-55.006 13.262-77.218 35.476-20.122 20.12-32.928 45.614-35.138 69.946-.958 10.502-.6 30.08 12.514 43.192 10.618 10.622 25.39 12.848 35.916 12.848 26.136.0 55.006-13.262 77.216-35.474 40.004-40.008 44.032-91.736 22.626-113.14z" /><glyph unicode="&#xe008;" glyph-name="paste" d="M704 576v160c0 17.6-14.4 32-32 32H512v64c0 35.2-28.8 64-64 64H320c-35.204.0-64-28.8-64-64v-64H96c-17.602.0-32-14.4-32-32V224c0-17.6 14.398-32 32-32h224V0h384l192 192v384H704zM320 831.886c.034.038.072.078.114.114h127.768c.042-.036.082-.076.118-.114V768h-128v63.886zM192 640v64h384v-64H192zM704 90.51V192h101.49L704 90.51zM832 256H640V64H384v448h448V256z" /><glyph unicode="&#xe009;" glyph-name="searchreplace" d="M888 576h-56v256h64v64H576v-64h64V576H384v256h64v64H128v-64h64V576h-56c-39.6.0-72-32.4-72-72V72c0-39.6 32.4-72 72-72h240c39.6.0 72 32.4 72 72v312h128V72c0-39.6 32.4-72 72-72h240c39.6.0 72 32.4 72 72v432c0 39.6-32.4 72-72 72zM348 64H164c-19.8.0-36 14.4-36 32s16.2 32 36 32h184c19.8.0 36-14.4 36-32s-16.2-32-36-32zM544 448h-64c-17.6.0-32 14.4-32 32s14.4 32 32 32h64c17.6.0 32-14.4 32-32s-14.4-32-32-32zM860 64H676c-19.8.0-36 14.4-36 32s16.2 32 36 32h184c19.8.0 36-14.4 36-32s-16.2-32-36-32z" /><glyph unicode="&#xe00a;" glyph-name="bullist" d="M384 832h576V704H384zm0-320h576V384H384zm0-320h576V64H384zM128 768c0-35.346 28.654-64 64-64s64 28.654 64 64c0 35.346-28.654 64-64 64s-64-28.654-64-64zm0-320c0-35.346 28.654-64 64-64s64 28.654 64 64c0 35.346-28.654 64-64 64s-64-28.654-64-64zm0-320c0-35.346 28.654-64 64-64s64 28.654 64 64c0 35.346-28.654 64-64 64s-64-28.654-64-64z" /><glyph unicode="&#xe00b;" glyph-name="numlist" d="M384 832h576V704H384zm0-320h576V384H384zm0-320h576V64H384zM320 430v146h-64v320H128v-64h64V576h-64v-64h128v-50l-128-60V256h128v-64H128v-64h128V64H128V0h192v320H192v50z" /><glyph unicode="&#xe00c;" glyph-name="indent" d="M64 768h896V640H64zM384 384h576V256H384zm0 192h576V448H384zM64 192h896V64H64zm0 384 224-160L64 256z" /><glyph unicode="&#xe00d;" glyph-name="outdent" d="M64 768h896V640H64zm0-384h576V256H64zm0 192h576V448H64zm0-384h896V64H64zM960 576 736 416l224-160z" /><glyph unicode="&#xe00e;" glyph-name="blockquote" d="M256.428 535.274c105.8.0 191.572-91.17 191.572-203.638.0-112.464-85.772-203.636-191.572-203.636-105.802.0-191.572 91.17-191.572 203.636l-.856 29.092c0 224.93 171.54 407.272 383.144 407.272V651.636c-73.1.0-141.826-30.26-193.516-85.204-9.954-10.578-19.034-21.834-27.224-33.656 9.784 1.64 19.806 2.498 30.024 2.498zm512 0c105.8.0 191.572-91.17 191.572-203.638.0-112.464-85.772-203.636-191.572-203.636-105.802.0-191.572 91.17-191.572 203.636l-.856 29.092c0 224.93 171.54 407.272 383.144 407.272V651.636c-73.1.0-141.826-30.26-193.516-85.204-9.956-10.578-19.036-21.834-27.224-33.656 9.784 1.64 19.806 2.498 30.024 2.498z" /><glyph unicode="&#xe00f;" glyph-name="undo" d="M704 0c59 199 134.906 455.266-256 446.096V224l-336.002 336L448 896V678.674C916.092 690.874 992 320 704 0z" /><glyph unicode="&#xe010;" glyph-name="redo" d="M576 678.674V896l336.002-336L576 224v222.096C185.094 455.266 261 199 320 0c-288 320-212.092 690.874 256 678.674z" /><glyph unicode="&#xe011;" glyph-name="unlink" d="M927.274 729.784l-133.49 133.488c-21.104 21.104-49.232 32.728-79.198 32.728s-58.094-11.624-79.196-32.726l-165.492-165.49c-43.668-43.668-43.668-114.724.0-158.392l2.746-2.746 67.882 67.882-2.746 2.746c-6.132 6.132-6.132 16.494.0 22.626l165.492 165.492c4.01 4.008 8.808 4.608 11.312 4.608s7.302-.598 11.312-4.61l133.49-133.488c6.132-6.134 6.132-16.498.002-22.628l-165.494-165.494c-4.008-4.008-8.806-4.608-11.31-4.608s-7.302.6-11.312 4.612l-2.746 2.746-67.88-67.884 2.742-2.742c21.106-21.108 49.23-32.728 79.2-32.728s58.094 11.624 79.196 32.726l165.494 165.492c43.662 43.666 43.662 114.72-.004 158.39zM551.356 359.356l-67.882-67.882 2.746-2.746c4.008-4.008 4.61-8.806 4.61-11.31.0-2.506-.598-7.302-4.606-11.314l-165.494-165.49c-4.01-4.01-8.81-4.61-11.314-4.61s-7.304.6-11.314 4.61l-133.492 133.486c-4.01 4.01-4.61 8.81-4.61 11.314s.598 7.3 4.61 11.312l165.49 165.488c4.01 4.012 8.81 4.612 11.314 4.612s7.304-.6 11.314-4.612l2.746-2.742 67.882 67.88-2.746 2.746c-21.104 21.104-49.23 32.726-79.196 32.726s-58.092-11.624-79.196-32.726l-165.488-165.486c-21.106-21.104-32.73-49.234-32.73-79.198s11.624-58.094 32.726-79.198l133.49-133.49c21.106-21.102 49.232-32.726 79.198-32.726s58.092 11.624 79.196 32.726l165.494 165.492c21.104 21.104 32.722 49.23 32.722 79.196s-11.624 58.094-32.726 79.196l-2.744 2.746zM352 250c-9.724.0-19.45 3.71-26.87 11.128-14.84 14.84-14.84 38.898.0 53.738l320 320c14.84 14.84 38.896 14.84 53.736.0 14.844-14.84 14.844-38.9.0-53.74l-320-320c-7.416-7.416-17.142-11.126-26.866-11.126z" /><glyph unicode="&#xe012;" glyph-name="link" d="M927.274 729.784l-133.49 133.488c-21.104 21.104-49.232 32.728-79.198 32.728s-58.094-11.624-79.196-32.726l-165.492-165.49c-43.668-43.668-43.668-114.724.0-158.392l2.746-2.746 67.882 67.882-2.746 2.746c-6.132 6.132-6.132 16.494.0 22.626l165.492 165.492c4.01 4.008 8.808 4.608 11.312 4.608s7.302-.598 11.312-4.61l133.49-133.488c6.132-6.134 6.132-16.498.002-22.628l-165.494-165.494c-4.008-4.008-8.806-4.608-11.31-4.608s-7.302.6-11.312 4.612l-2.746 2.746-67.88-67.884 2.742-2.742c21.106-21.108 49.23-32.728 79.2-32.728s58.094 11.624 79.196 32.726l165.494 165.492c43.662 43.666 43.662 114.72-.004 158.39zM551.356 359.356l-67.882-67.882 2.746-2.746c4.008-4.008 4.61-8.806 4.61-11.31.0-2.506-.598-7.302-4.606-11.314l-165.494-165.49c-4.01-4.01-8.81-4.61-11.314-4.61s-7.304.6-11.314 4.61l-133.492 133.486c-4.01 4.01-4.61 8.81-4.61 11.314s.598 7.3 4.61 11.312l165.49 165.488c4.01 4.012 8.81 4.612 11.314 4.612s7.304-.6 11.314-4.612l2.746-2.742 67.882 67.88-2.746 2.746c-21.104 21.104-49.23 32.726-79.196 32.726s-58.092-11.624-79.196-32.726l-165.488-165.486c-21.106-21.104-32.73-49.234-32.73-79.198s11.624-58.094 32.726-79.198l133.49-133.49c21.106-21.102 49.232-32.726 79.198-32.726s58.092 11.624 79.196 32.726l165.494 165.492c21.104 21.104 32.722 49.23 32.722 79.196s-11.624 58.094-32.726 79.196l-2.744 2.746zM8e2 122c-9.724.0-19.45 3.708-26.87 11.13l-128 127.998c-14.844 14.84-14.844 38.898.0 53.738 14.84 14.844 38.896 14.844 53.736.0l128-128c14.844-14.84 14.844-38.896.0-53.736-7.416-7.422-17.142-11.13-26.866-11.13zM608 0c-17.674.0-32 14.326-32 32v128c0 17.674 14.326 32 32 32s32-14.326 32-32V32c0-17.674-14.326-32-32-32zM928 320H8e2c-17.674.0-32 14.326-32 32s14.326 32 32 32h128c17.674.0 32-14.326 32-32s-14.326-32-32-32zM224 774c9.724.0 19.45-3.708 26.87-11.13l128-128c14.842-14.84 14.842-38.898.0-53.738-14.84-14.844-38.898-14.844-53.738.0l-128 128c-14.842 14.84-14.842 38.898.0 53.738 7.418 7.422 17.144 11.13 26.868 11.13zM416 896c17.674.0 32-14.326 32-32V736c0-17.674-14.326-32-32-32s-32 14.326-32 32v128c0 17.674 14.326 32 32 32zM96 576h128c17.674.0 32-14.326 32-32s-14.326-32-32-32H96c-17.674.0-32 14.326-32 32s14.326 32 32 32z" /><glyph unicode="&#xe013;" glyph-name="bookmark" d="M256 896V0l256 256L768 0v896H256zM704 170.51l-192 192-192-192V832h384V170.51z" /><glyph unicode="&#xe014;" glyph-name="image" d="M896 832H128c-35.2.0-64-28.8-64-64V128c0-35.2 28.8-64 64-64h768c35.2.0 64 28.8 64 64v640c0 35.2-28.8 64-64 64zm0-703.884c-.012-.014-.03-.028-.042-.042L704 448 544 320 320 608 128.032 128.084c-.01.01-.022.022-.032.032v639.77c.034.04.076.082.114.114h767.77c.04-.034.082-.076.116-.116v-639.768zM640 608c0-53.019 42.981-96 96-96s96 42.981 96 96c0 53.019-42.981 96-96 96s-96-42.981-96-96z" /><glyph unicode="&#xe015;" glyph-name="media" d="M896 832H128c-35.2.0-64-28.8-64-64V128c0-35.2 28.8-64 64-64h768c35.2.0 64 28.8 64 64v640c0 35.2-28.8 64-64 64zM256 128H128v128h128V128zm0 256H128v128h128V384zm0 256H128v128h128V640zM704 128H320v640h384V128zm192 0H768v128h128V128zm0 256H768v128h128V384zm0 256H768v128h128V640zm-512 0V256l288 192z" /><glyph unicode="&#xe016;" glyph-name="help" d="M448 256h128V128H448v128zM704 704c35.346.0 64-28.654 64-64V474L540 320h-92v64l192 128v64H320v128h384zM512 896c-119.666.0-232.166-46.6-316.784-131.216-84.614-84.618-131.216-197.118-131.216-316.784.0-119.664 46.602-232.168 131.216-316.784C279.834 46.60000000000001 392.334.0 512 0c119.664.0 232.168 46.6 316.784 131.216S960 328.336 960 448c0 119.666-46.6 232.166-131.216 316.784C744.168 849.4 631.664 896 512 896z" /><glyph unicode="&#xe017;" glyph-name="code" d="M416 256 224 448l192 192-64 64L96 448l256-256zM672 704l-64-64 192-192-192-192 64-64 256 256z" /><glyph unicode="&#xe018;" glyph-name="insertdatetime" d="M77.798 655.376l81.414-50.882c50.802 81.114 128.788 143.454 221.208 174.246l-30.366 91.094c-113.748-37.898-209.728-114.626-272.256-214.458zM673.946 869.834 643.58 778.74c92.422-30.792 170.404-93.132 221.208-174.248l81.412 50.882c-62.526 99.834-158.506 176.562-272.254 214.46zM607.974 255.992c-4.808.0-9.692 1.09-14.286 3.386l-145.688 72.844V544c0 17.672 14.328 32 32 32s32-14.328 32-32V371.778l110.31-55.156c15.806-7.902 22.214-27.124 14.31-42.932-5.604-11.214-16.908-17.696-28.646-17.698zM512 768c-212.078.0-384-171.922-384-384S299.922.0 512 0c212.078.0 384 171.922 384 384S724.078 768 512 768zm0-672c-159.058.0-288 128.942-288 288s128.942 288 288 288c159.058.0 288-128.942 288-288S671.058 96 512 96z" /><glyph unicode="&#xe019;" glyph-name="preview" d="M64 504.254c45.318 49.92 97.162 92.36 153.272 125.124 90.332 52.744 192.246 80.622 294.728 80.622 102.48.0 204.396-27.878 294.726-80.624 56.112-32.764 107.956-75.204 153.274-125.124v117.432c-33.01 28.118-68.124 53.14-104.868 74.594-105.006 61.314-223.658 93.722-343.132 93.722s-238.128-32.408-343.134-93.72c-36.742-21.454-71.856-46.478-104.866-74.596v-117.43zM512 640c-183.196.0-345.838-100.556-448-256 102.162-155.448 264.804-256 448-256s345.838 100.552 448 256C857.838 539.444 695.196 640 512 640zm0-192c0-35.346-28.654-64-64-64s-64 28.654-64 64c0 35.348 28.654 64 64 64s64-28.652 64-64zM728.066 263.338c-67.434-39.374-140.128-59.338-216.066-59.338s-148.632 19.964-216.066 59.338c-51.554 30.104-98.616 71.31-138.114 120.662 39.498 49.35 86.56 90.558 138.116 120.66 13.276 7.752 26.758 14.74 40.426 20.982-10.512-23.742-16.362-50.008-16.362-77.642.0-106.04 85.962-192 192-192 106.04.0 192 85.96 192 192 0 27.634-5.85 53.9-16.36 77.642 13.668-6.244 27.15-13.23 40.426-20.982 51.554-30.102 98.616-71.31 138.116-120.66-39.498-49.352-86.56-90.558-138.116-120.662z" /><glyph unicode="&#xe01a;" glyph-name="forecolor" d="M651.168 676.166C626.556 758.128 622.292 768 544 768h-64c-79.618.0-82.664-10.152-108.418-96 0-.002.0-.002-.002-.004L227.582 192h113.636l57.6 192h226.366l57.6-192h113.63l-145.246 484.166zM437.218 512l38.4 136c10.086 33.618 36.38 30 36.38 30s26.294 3.618 36.38-30h.004l38.4-136h-149.564z" /><glyph unicode="&#xe01b;" glyph-name="table" d="M64 768V64h896v704H64zM384 320v128h256V320H384zm256-64V128H384v128h256zm0 384V512H384v128h256zm-320 0V512H128v128h192zM128 448h192V320H128v128zm576 0h192V320H704v128zm0 64v128h192V512H704zM128 256h192V128H128v128zM704 128v128h192V128H704z" /><glyph unicode="&#xe01c;" glyph-name="hr" d="M64 512h896V384H64z" /><glyph unicode="&#xe01d;" glyph-name="removeformat" d="M64 192h512V64H64v128zM768 768H547.442l-183.766-512h-132.288l183.762 512h-223.15v128h576V768zM929.774 64 8e2 193.774 670.226 64 608 126.226 737.774 256 608 385.774 670.226 448 8e2 318.226 929.774 448 992 385.774 862.226 256 992 126.226 929.774 64z" /><glyph unicode="&#xe01e;" glyph-name="subscript" d="M768 50V0h128v-64H704V82l128 60v50H704v64h192V110zM676 704H540L352 516 164 704H28l256-256L28 192h136l188 188 188-188h136L420 448z" /><glyph unicode="&#xe01f;" glyph-name="superscript" d="M768 754v-50h128v-64H704v146l128 60v50H704v64h192V814zm-92-50H540L352 516 164 704H28l256-256L28 192h136l188 188 188-188h136L420 448z" /><glyph unicode="&#xe020;" glyph-name="charmap" d="M704 128v37.004c151.348 61.628 256 193.82 256 346.996.0 212.078-200.576 384-448 384S64 724.078 64 512c0-153.176 104.654-285.368 256-346.996v-37.004H128l-64 96v-224h320v222.812c-100.9 51.362-170.666 161.54-170.666 289.188.0 176.732 133.718 320 298.666 320s298.666-143.268 298.666-320c0-127.648-69.766-237.826-170.666-289.188V0h320v224l-64-96H704z" /><glyph unicode="&#xe021;" glyph-name="emoticons" d="M512 820c99.366.0 192.782-38.694 263.042-108.956s108.958-163.678 108.958-263.044-38.696-192.782-108.958-263.042-163.676-108.958-263.042-108.958-192.782 38.696-263.044 108.958-108.956 163.676-108.956 263.042 38.694 192.782 108.956 263.044 163.678 108.956 263.044 108.956zm0 76C264.576 896 64 695.424 64 448S264.576.0 512 0s448 200.576 448 448-200.576 448-448 448v0zM320 576c0-35.346 28.654-64 64-64s64 28.654 64 64c0 35.346-28.654 64-64 64s-64-28.654-64-64zm256 0c0-35.346 28.654-64 64-64s64 28.654 64 64c0 35.346-28.654 64-64 64s-64-28.654-64-64zM512 304c-101.84.0-192.56 36.874-251.166 94.328 23.126-117.608 126.778-206.328 251.166-206.328s228.04 88.72 251.168 206.328c-58.608-57.454-149.328-94.328-251.168-94.328z" /><glyph unicode="&#xe022;" glyph-name="print" d="M256 832h512V704H256v128zM896 640H128c-35.2.0-64-28.8-64-64V320c0-35.2 28.796-64 64-64h128V64h512v192h128c35.2.0 64 28.8 64 64v256c0 35.2-28.8 64-64 64zM704 128H320v256h384V128zM910.4 544c0-25.626-20.774-46.4-46.398-46.4s-46.402 20.774-46.402 46.4 20.778 46.4 46.402 46.4c25.626.0 46.398-20.774 46.398-46.4z" /><glyph unicode="&#xe023;" glyph-name="fullscreen" d="M480 576 288 768l128 128H64V544l128 128 192-192zm160-96 192 192 128-128v352H608l128-128-192-192zM544 320l192-192L608 0h352v352L832 224 640 416zM384 416 192 224 64 352V0h352L288 128l192 192z" /><glyph unicode="&#xe024;" glyph-name="spellcheck" d="M960 832v64H768c-35.202.0-64-28.8-64-64V512c0-15.856 5.858-30.402 15.496-41.614L416 210 274 358l-82-70L416 0l416 448h128v64H768v320h192zM256 448h64v384c0 35.2-28.8 64-64 64H128c-35.2.0-64-28.8-64-64V448h64v192h128V448zM128 704v128h128V704H128zM640 512v96c0 35.2-8.8 64-44 64 35.2.0 44 28.8 44 64v96c0 35.2-28.8 64-64 64H384V448h192c35.2.0 64 28.8 64 64zM448 832h128V704H448v128zm0-192h128V512H448v128z" /><glyph unicode="&#xe025;" glyph-name="nonbreaking" d="M448 448H320v128h128v128h128V576h128V448H576V320H448v128zm512-64V64H64v320h128V192h640v192h128z" /><glyph unicode="&#xe026;" glyph-name="template" d="M512 576h128v-64H512zm0-384h128v-64H512zm64 192h128v-64H576zm192 0V192h-64v-64h128v256zm-384 0h128v-64H384zM320 192h128v-64H320zm0 384h128v-64H320zM192 768V512h64v192h64v64zM704 512h128v256h-64V576h-64zM64 896V0h896v896H64zM896 64H128v768h768V64zM192 384V128h64v192h64v64zM576 768h128v-64H576zm-192 0h128v-64H384z" /><glyph unicode="&#xe027;" glyph-name="pagebreak" d="M816 896l16-384H192l16 384h32l16-320h512l16 320h32zM208 0l-16 320h640L816 0h-32l-16 256H256L240 0h-32zM64 448h128v-64H64zm192 0h128v-64H256zm192 0h128v-64H448zm192 0h128v-64H640zm192 0h128v-64H832z" /><glyph unicode="&#xe028;" glyph-name="restoredraft" d="M576 896c247.424.0 448-200.576 448-448S823.424.0 576 0v96c94.024.0 182.418 36.614 248.902 103.098S928 353.976 928 448c0 94.022-36.614 182.418-103.098 248.902S670.0240000000001 8e2 576 8e2c-94.022.0-182.418-36.614-248.902-103.098-51.14-51.138-84.582-115.246-97.306-184.902H416L192 256-32 512h164.57C163.63 729.102 350.308 896 576 896zM768 512V384H512v320h128V512z" /><glyph unicode="&#xe02a;" glyph-name="bold" d="M625.442 465.818c48.074 38.15 78.558 94.856 78.558 158.182.0 114.876-100.29 208-224 208H256V64h288c123.712.0 224 93.124 224 208 0 88.196-59.118 163.562-142.558 193.818zM384 656c0 26.51 21.49 48 48 48h67.204C541.618 704 576 661.02 576 608s-34.382-96-76.796-96H384v144zM547.2 192h-115.2c-26.51.0-48 21.49-48 48v144h163.2c42.418.0 76.8-42.98 76.8-96s-34.382-96-76.8-96z" /><glyph unicode="&#xe02b;" glyph-name="italic" d="M832 832v-64H688L432 128h144V64H128v64h144l256 640H384v64h448z" /><glyph unicode="&#xe02c;" glyph-name="underline" d="M192 128h576V64H192v64zM640 832V448c0-31.312-14.7-61.624-41.39-85.352C567.668 335.146 525.542 320 480 320c-45.544.0-87.668 15.146-118.608 42.648-26.692 23.728-41.392 54.04-41.392 85.352v384H192V448c0-141.382 128.942-256 288-256s288 114.618 288 256v384H640z" /><glyph unicode="&#xe02d;" glyph-name="strikethrough" d="M960 448H694.124c-50.078 35.42-114.43 54.86-182.124 54.86-89.206.0-164.572 50.242-164.572 109.712s75.366 109.714 164.572 109.714c75.058.0 140.308-35.576 159.12-82.286h113.016c-7.93 50.644-37.58 97.968-84.058 132.826-50.88 38.16-117.676 59.174-188.078 59.174-70.404.0-137.196-21.014-188.074-59.174-54.788-41.09-86.212-99.502-86.212-160.254s31.424-119.164 86.212-160.254c1.956-1.466 3.942-2.898 5.946-4.316H64v-64h512.532c58.208-17.106 100.042-56.27 100.042-100.572.0-59.468-75.368-109.71-164.572-109.71-75.06.0-140.308 35.574-159.118 82.286h-113.016c7.93-50.64 37.582-97.968 84.06-132.826 50.876-38.164 117.668-59.18 188.072-59.18 70.402.0 137.198 21.016 188.074 59.174 54.79 41.09 86.208 99.502 86.208 160.254.0 35.298-10.654 69.792-30.294 100.572H960v64z" /><glyph unicode="&#xe02e;" glyph-name="visualchars" d="M384 832c-123.712.0-224-100.288-224-224s100.288-224 224-224V64h128v640h64V64h128v640h128v128H384z" /><glyph unicode="&#xe02f;" glyph-name="ltr" d="M448 832c-123.712.0-224-100.288-224-224s100.288-224 224-224V64h128v640h64V64h128v640h128v128H448zM64 64l224 192L64 448z" /><glyph unicode="&#xe030;" glyph-name="rtl" d="M320 832C196.288 832 96 731.712 96 608s100.288-224 224-224V64h128v640h64V64h128v640h128v128H320zM960 448 736 256 960 64z" /><glyph unicode="&#xe031;" glyph-name="copy" d="M832 640H640v64L448 896H64V192h384V0h576v448L832 640zM832 549.49 933.49 448H832v101.49zm-384 256L549.49 704H448v101.49zM128 832h256V640h192V256H128v576zM960 64H512v128h128v384h128V384h192V64z" /><glyph unicode="&#xe032;" glyph-name="resize" d="M768 704h64v-64h-64zM640 576h64v-64h-64zm0-128h64v-64h-64zm0-128h64v-64h-64zM512 448h64v-64h-64zm0-128h64v-64h-64zm-128 0h64v-64h-64zM768 576h64v-64h-64zm0-128h64v-64h-64zm0-128h64v-64h-64zm0-128h64v-64h-64zm-128 0h64v-64h-64zm-128 0h64v-64h-64zm-128 0h64v-64h-64zm-128 0h64v-64h-64z" /><glyph unicode="&#xe034;" glyph-name="browse" d="M928 832H512l-32 64H128L64 768h896zM840.34 256H928l32 448H64l64-640h356.08c-104.882 37.776-180.08 138.266-180.08 256 0 149.982 122.018 272 272 272 149.98.0 272-122.018 272-272 0-21.678-2.622-43.15-7.66-64zM874.996 110.25 740.5 220.942c17.454 28.922 27.5 62.814 27.5 99.058.0 106.04-85.96 192-192 192s-192-85.96-192-192 85.96-192 192-192c36.244.0 70.138 10.046 99.058 27.5l110.692-134.496c22.962-26.678 62.118-28.14 87.006-3.252l5.492 5.492c24.888 24.888 23.426 64.044-3.252 87.006zM576 196c-68.484.0-124 55.516-124 124s55.516 124 124 124 124-55.516 124-124-55.516-124-124-124z" /><glyph unicode="&#xe035;" glyph-name="pastetext" d="M704 576v160c0 17.6-14.4 32-32 32H512v64c0 35.2-28.8 64-64 64H320c-35.204.0-64-28.8-64-64v-64H96c-17.602.0-32-14.4-32-32V224c0-17.6 14.398-32 32-32h224V0h576v576H704zM320 831.886c.034.038.072.078.114.114h127.768c.042-.036.082-.076.118-.114V768h-128v63.886zM192 640v64h384v-64H192zM832 64H384v448h448V64zM448 448V320h32l32 64h64V192h-48v-64h160v64h-48v192h64l32-64h32v128z" /><glyph unicode="&#xe603;" glyph-name="codesample" d="M200.015 577.994v103.994c0 43.077 34.919 77.997 77.997 77.997h26v103.994h-26c-100.51.0-181.991-81.481-181.991-181.991V577.994c0-43.077-34.919-77.997-77.997-77.997h-26v-103.994h26c43.077.0 77.997-34.919 77.997-77.997v-103.994c0-100.509 81.481-181.991 181.991-181.991h26v103.994h-26c-43.077.0-77.997 34.919-77.997 77.997v103.994c0 50.927-20.928 96.961-54.642 129.994 33.714 33.032 54.642 79.065 54.642 129.994zm623.97.0v103.994c0 43.077-34.919 77.997-77.997 77.997h-26v103.994h26c100.509.0 181.991-81.481 181.991-181.991V577.994c0-43.077 34.919-77.997 77.997-77.997h26v-103.994h-26c-43.077.0-77.997-34.919-77.997-77.997v-103.994c0-100.509-81.482-181.991-181.991-181.991h-26v103.994h26c43.077.0 77.997 34.919 77.997 77.997v103.994c0 50.927 20.928 96.961 54.642 129.994-33.714 33.032-54.642 79.065-54.642 129.994zM615.997 603.277c0-57.435-46.56-103.994-103.994-103.994s-103.994 46.56-103.994 103.994c0 57.435 46.56 103.994 103.994 103.994s103.994-46.56 103.994-103.994zM512 448.717c-57.435.0-103.994-46.56-103.994-103.994.0-55.841 26-100.107 105.747-103.875-23.715-33.413-59.437-46.608-105.747-50.94v-61.747c0 0 207.991-18.144 207.991 216.561-.202 57.437-46.56 103.996-103.994 103.996z" /></font>
</defs>
</svg>
